show episodes
 
Profit from the hobby you love. What are the best baseball, basketball and football cards to invest in today? How is the market trending? How can you profit? In each episode, we tackle these questions and more. Sports Card Investor is brought to you by eBay, your number one spot for cards and collectibles. With the largest inventory of sports cards from basketball to soccer, and buyers from all over the globe, eBay is the leading place to buy, sell and invest your cards. Search eBay trading ...
 
Combat Phase is a weekly podcast celebrating miniature-wargaming. Hosts Kenny and Wargamer Shawn grow the hobby community and bring excellent resources to listeners around the world. Join us each week as we discuss news and rumors, tips for the hobby, community support and everything for the avid wargamer. www.combatphase.com
 
Writing on walls, trains and other surfaces is something that lots of people do worldwide. This podcast includes stories about being a clueless graffiti writer and other related subjects. It's not about your latest local commission street art mural; Banksy book; or the latest photorealistic legal mural paid for by a large company. Listen and open your mind to learn more about supposedly mindless vandalism; as well as other points of interest in relation to mental, physical and social wellnes ...
 
Bob and Josh work A LOT at I Like To Make Stuff. The No Instructions podcast is a dedicated time for them to play with toys, build Lego sets and chat about life, kids and nerd culture. And of course, the show can often go in really random directions, because there are literally, No Instructions. So, put away your work, grab your favorite model kit, and have some designated play time.
 
Radio Free Cybertron is The Transformers Podcast! The world’s first and best. We’ve been bringing you the latest from around the Transformers world since 1999! Weekly news and reviews on all the Transformers properties in the universe: Titans Return, the Last Knight, Combiner Wars, Robots in Disguise, Transformers games, Transformers Angry Birds, Transformers 4: Age of Extinction, Transformers Prime, Rescue Bots, Fall of Cybertron, Transformers Legends, Botcon, IDW Comics, Marvel Comics, con ...
 
Atlanta Brick Co is one of largest building-brick toy and LEGO(R) resellers in the world. We talk about LEGO(R) products, themes, custom building, Minifigures and some tips and tricks for collectors. Join the host, Justin, as he discusses all about our favorite plastic construction toy with building brick professionals. New Episodes are published every Friday morning. For more information, visit www.atlbrick.com or call 470-414-2208.
 
Loading …
show series
 
TITLE "21:03" FILE "9-15-21Crunk old mix.mp3" MP3 TRACK 01 AUDIO TITLE "Say Round (Lil Boosie, Big Head, Webbie & Foxx)" PERFORMER "Trill Fam" INDEX 01 00:00:00 TRACK 02 AUDIO TITLE "Ridin'" PERFORMER "T.I. feat. Big Kuntry & Plies" INDEX 01 01:30:00 TRACK 03 AUDIO TITLE "Set It Off" PERFORMER "Lil Boosie" INDEX 01 02:55:00 TRACK 04 AUDIO TITLE "04…
 
This episode is a conversation with Peter van der Sande Lacoste who's a musculo-skeletal & holistic health specialist in Sydney Australia. We talk about how our thoughts, beliefs and emotions can influence health; why he has continued to be inquisitive and motivated to learn to understand the human organism; he gives clear suggestions about how to …
 
We’ve got a big Empire Of Rust announcement, Hasbro announced a shocking stretch goal for the crowdfunded Haslab Victory Saber, and we’ve got a ton of Toyhax updates! All this and much, much more on this episode of TransMissions! Check out our “Trips to the Store” video segment on YouTube! This episode was edited by Michael Ordway (@minervion). Ple…
 
The Marvel team at Hasbro must wish they weren't working remotely. They could just walk into the office, drop a microphone, and walk out again. For the second time in a row they not only broke the HasLab funding records (in dollars AND backers), they smashed through it and just kept going. Not only is the Galactus HasLab funded, we are also getting…
 
The Marvel team at Hasbro must wish they weren't working remotely. They could just walk into the office, drop a microphone, and walk out again. For the second time in a row they not only broke the HasLab funding records (in dollars AND backers), they smashed through it and just kept going. Not only is the Galactus HasLab funded, we are also getting…
 
If you’ve been watching any TV in the past year, chances are you’ve seen (or at least heard about) Marvel’s newest installments on Disney+: WandaVision, The Falcon and the Winter Solider, Loki, and it’s most recent offering, What If…? Now, you can get LEGO Marvel Collectible Minifigures to match your favorite shows and characters! But are they wort…
 
Staghorn...you'd think he has a horn, right? Well....he kinda does...suffice to say this guy is NOT what Jeff expected. But is that a bad thing? Listen and find out! BIG Thanks to our Patreon supporters, you guys are the best!: Mr. Matt Moore Jared Hart Christopher Scheetz Seth Szilagyi Cajun Baz Wayde Burton Pam Johnston Oliver Sanders Heather Jaw…
 
Here it is! The most anticipated Star Wars BTW (Between the Studs) episode ever! The Clone Wars! The much beloved show is discussed in great detail by Jon, Joe, Justin, and Jillian (non-J's need not apply). The younglings educate Justin on why this show was so great and why the LEGO(R) sets are even better.The quartet takes a deep dive into the suc…
 
What do Hamilton, the sequel to Disney’s Enchanted, and TWIM all have in common?! The incredible James Monroe Iglehart, of course – and this week, we celebrate his triumphant return! Ian Hecox and Ify Nwadiwe from SMOSH talk about Marvel and pranks, plus special guest Meng’er Zhang from Marvel Studios’ Shang-Chi and The Legend of The Ten Rings join…
 
The Impact Players are back and get going with some Good Housekeeping and then they do the major review (4:52), the Patreon Giveaways (10:44) and the regular giveaways (16:03) among other tidbits. We then get weekly purchases (35:35) including the Major mark purchases of the week (1:08:41) and the news (1:19:44). We close out the show with The Ring…
 
Geoff and guest host Parker sit down in the Sports Card Investor studio and discuss five cards, based on your suggestion, and wether you should buy, sell or hold. **Work at Sports Card Investor: https://www.sportscardinvestor.com/jobs/ **Try Market Movers Today: https://www.marketmoversapp.com/**eBay’s New Trading Hub: https://pages.ebay.com/tradin…
 
Nerd Rage Radio Episode 317: Trailers, Theaters & Time Markers NERD WEEKS RIP Norm MacDonaldhttps://www.cbr.com/norm-macdonald-obituary/?fbclid=IwAR1OXcIpguS1TLSiDcQMKiHXVG-Blj_Ag1cF3O3FdDx949RF8xHFDvpmaro NOLAN leaves Warner Brothershttps://www.indiewire.com/2021/09/christopher-nolan-exits-warner-bros-new-film-universal-1234664679/amp/?fbclid=IwAR…
 
Welcome to the Card Foundation Podcast episode 33! This week, we bring you the latest news on Friday's Major Pod Network card set release! Plus, we discuss the rookie cards of Brian Pillman Jr., Upper Deck AEW hobby box price increases, PSA grading reveals, eBay buying and selling etiquette, and so much more! Follow us on Instagram @cardfoundationp…
 
Welcome once again to Moonbase 2 with Andy and Mikey talking about all the Transformers news for the week, well the stuff they find interesting at least. What tickles the eyes of the lads this week? Haslab Victory Saber has a new backer goal of a stand, season 4 of Cyberverse has its first bit of advertisement...its not much and there are new pictu…
 
In this week's episode Carson, John, Tim continue their discussion of the news from the Atom Mass Games Mini-stravaganza! This week they focus on new ships and X-wing's fading faction identity problem. If you like the podcast, please consider supporting us directly by going to our Patreon page at: www.patreon.com/radiotcx Like us on Facebook: Faceb…
 
We’ve got a big Empire Of Rust announcement, Hasbro announced a shocking stretch goal for the crowdfunded Haslab Victory Saber, and we’ve got a ton of Toyhax updates! All this and much, much more on this episode of TransMissions! Check out our “Trips to the Store” video segment on YouTube! This episode was edited by Michael Ordway (@minervion). Ple…
 
Geoff brings you this week's Top 5 Hottest Sports Cards from our new studio, and discusses 3 NFL QB's and two MLB power hitters and how their performances affect their card prices. **Try Market Movers Today: https://www.marketmoversapp.com/ **eBay’s New Trading Hub: https://pages.ebay.com/tradinghub/index.html…
 
In this episode, Tom is away, so Crystal joins Eric to talk about 50 Missions of The Crew, Hugo, Alice is Missing, Arch Ravels, Gravwell 2nd Edition, and Stellar. Geoff talks about choking, and we finish up with a Top Ten list of games that be played in 30 minutes or less. Support for The Dice Tower comes from TheOp.games and GameNerdz.com.…
 
Support us and get Cool Stuff! https://Patreon.com/GoldSquadron/ Follow us on Twitch! https://www.twitch.tv/goldsquadronpodcast/ Event and Weekly Stream Schedule http://bit.ly/GSPStreams Join Our Discord Channel: https://discord.gg/svxWJHf All the Different Ways you can Support the Channel: http://bit.ly/supportgsp Donate FREE MONEY Watch this vide…
 
Today News On A Tues discusses some controversy, and some many other goodies! Find us everywhere thanks to https://linktr.ee/thebricksking Music: www.bensound.com LEGO, the LEGO logo, the Minifigure, and the Brick and Knob configurations are trademarks of the LEGO Group of Companies. ©2021 The LEGO Group. THE BRICKS KING PODCAST IS NOT ENDORSED BY …
 
We all search comps before investing in cards. However, that the true value of the card? T-Pott gives his insight in today's episode of Data Dive. **Try Market Movers Today: https://www.marketmoversapp.com/ **eBay’s New Trading Hub: https://pages.ebay.com/tradinghub/index.html
 
We are rounding out the summer camp series with The Burning. The guest for this episode is Austin from the podcast If You Catch My Grift. We break down the history of the movie and how it launched the careers of some of the most successful and questionable people in the entertainment industry.
 
On this episode we recap the latest episode of LEGO Masters US Season 2, and dive a little deeper into the builds from the contestants. Find us everywhere thanks to https://linktr.ee/thebricksking Music: www.bensound.com LEGO, the LEGO logo, the Minifigure, and the Brick and Knob configurations are trademarks of the LEGO Group of Companies. ©2021 T…
 
On this episode we are LIVE from Bricks Killeen talking to some amazing MOC creators and interesting LEGO fans. Find us everywhere thanks to https://linktr.ee/thebricksking Music: www.bensound.com LEGO, the LEGO logo, the Minifigure, and the Brick and Knob configurations are trademarks of the LEGO Group of Companies. ©2021 The LEGO Group. THE BRICK…
 
Ron, John, And Richard discuss Shang Chi, Y the Last Man, Hawkeye, and more! Shang Chi discussion part 2- 1:30 Malignant and Kate thoughts- 9:12 Y The Last Man- 10:59 What If? Episode 5 and 6- 16:56 Locke/Key, I Know What You Did Last Summer Trailers- 22:15 Hawkeye Trailer- 23:30 House of R- 41:38 Johns question of the week- 51:00 Radar Toy talk- 1…
 
STAN BUSH GAVE US THE INTRO CLIP, AND PERMISSION TO USE THE TOUCH EPIC GUITAR REMIX! In Episode 247 of All Things Transformers, It's time to TRANSFORM AND ROLL OUT! That's right GCRN Fans the NEXT Top 100 is here! This time we are counting down the GCRN's Top 100 TRANSFORMERS CHARACTERS! HOW has it taken US 12 years to do this one??!!!! Find out as…
 
Ladies and Gentlemen, this is it! The final episode of LEGO(R) Masters Season 2, Episode 12!!! Justin sits down with both Mark and Steven to discuss the final challenge and what they needed to achieve to take home the trophy (or do they even really get the trophy?!?!) The Erickson brothers takes us through the technical side of their winning build,…
 
Awkwafina joins us to spill behind-the-scenes secrets from Marvel Studios’ Shang-Chi and The Legend of The Ten Rings! The co-authors of the new Black Nerd Problems book also sit down for a super fun conversation about comics and what the word “nerd” even means. Plus, Ryan and Lorraine chat about the brand-new trailer for Marvel Studios’ Hawkeye and…
 
The Busy Boys are back and get going with some Good Housekeeping and then they do the major review (3:33), the Patreon Giveaways (17:28) and the regular giveaways (23:25) among other tidbits. We then get weekly purchases (40:40) including the Major mark purchases of the week (1:05:24) and the news (1:12:02). We close out the show with The Ringside …
 
We review IDW Publishing’s King Grimlock #2 in Comics, we talk about the shakeups at Transformers franchise movie studio Paramount, and then we talk about… Toys R Us? All this and much, much more on this episode of TransMissions Alt Mode! This episode was edited by Michael Ordway (@minervion). Please check out his work in 3D modelling and animation…
 
The guys are talking about the newest Marvel cinematic release: Shang-Chi. There are spoilers ahead, you’ve been warned. Watch the episode at https://youtu.be/1a0CpS_haIM WHAT ARE THEY PLAYING WITH? Bob: Lego R2-D2 Set#75308 Josh: Lego Infinity Gauntlet Set# 76191 Find out More from Bob and Josh: Home Youtube: http://youtube.com/iliketomakestuff ht…
 
On this special edition of the forecast, brought to you from Las Vegas, Geoff sits down with T-Pott, Ben and Doug and they try to convince Geoff to invest in six different cards. **Try Market Movers Today: https://www.marketmoversapp.com/ **eBay’s New Trading Hub: https://pages.ebay.com/tradinghub/index.html…
 
Nerd Rage Radio Episode 316: The Notorious S.H.O.R.T. NERD WEEKS KOTOR RETURNS https://www.cbr.com/star-wars-knights-of-the-old-republic-remake/?fbclid=IwAR2pQsJgMODZU0V0ka5K3s_2Kvh_-64lxu__m2MX7jGLBVOFe2izrWZ2Wfk Matrix 4 https://youtu.be/AB59tJPthZg Little Trouble In Big China https://screenrant.com/shang-chi-movie-china-release-simu-liu-backlash…
 
PERFORMER "Tonka" TITLE "19:58" FILE "9-15-21 internetmix.mp3" MP3 TRACK 01 AUDIO TITLE "First Of All" PERFORMER "DME & Blacc Zacc" INDEX 01 00:00:00 TRACK 02 AUDIO TITLE "Menace" PERFORMER "Migos" INDEX 01 02:21:00 TRACK 03 AUDIO TITLE "Backseat Of The Rolls Truck" PERFORMER "BIG30" INDEX 01 03:44:00 TRACK 04 AUDIO TITLE "Small Town" PERFORMER "Du…
 
Loading …

Quick Reference Guide

Copyright 2021 | Sitemap | Privacy Policy | Terms of Service
Google login Twitter login Classic login